Март и его хлеб / Mardileib (Хейно Парс / Heino Pars) [1971, СССР, мультфильм, TVRip] VO 

Цитировать
Март и его хлеб / Mardileib
Страна: СССР (Эстонская республика)
Жанр: мультфильм
Продолжительность: 00:09:42
Год выпуска: 1971
Перевод: Любительский (одноголосый закадровый) progulkin
Русские субтитры: нет
Режиссёр: Хейно Парс / Heino Pars
Описание: По сказке Яана Кросса.
Давно, в XV веке жил в Таллине помощник аптекаря Март, который однажды в лекарство намешал разных сладостей и неожиданно у него получился прекрасный марципан — Мартов хлеб.
Качество: TVRip
Формат: AVI
Видео: 1600 kbps, 640х480 (4:3), 25.000 fps, MPEG-4 Visual (XviD)
Аудио 1: рус, 128 kbps, 48.0 kHz, 2 channels, MPEG Audio (MP3)
Аудио 2: эст, 128 kbps, 48.0 kHz, 2 channels, MPEG Audio (MP3)
Субтитры: отсутствуют

Подробные технические данные

General
Complete name : Mardileib (1971).avi
Format : AVI
Format/Info : Audio Video Interleave
File size : 130 MiB
Duration : 9mn 42s
Overall bit rate : 1 870 Kbps
Writing application : VirtualDubMod 1.5.10.2 (build 2540/release)
Writing library : VirtualDubMod build 2540/release
Video
ID : 0
Format : MPEG-4 Visual
Format profile : Advanced Simple@L5
Format settings, BVOP : 2
Format settings, QPel : No
Format settings, GMC : No warppoints
Format settings, Matrix : Default (H.263)
Codec ID : XVID
Codec ID/Hint : XviD
Duration : 9mn 42s
Bit rate : 1 600 Kbps
Width : 640 pixels
Height : 480 pixels
Display aspect ratio : 4:3
Frame rate : 25.000 fps
Color space : YUV
Chroma subsampling : 4:2:0
Bit depth : 8 bits
Scan type : Progressive
Compression mode : Lossy
Bits/(Pixel*Frame) : 0.208
Stream size : 111 MiB (86%)
Writing library : XviD 73
Audio #1
ID : 1
Format : MPEG Audio
Format version : Version 1
Format profile : Layer 3
Mode : Joint stereo
Mode extension : MS Stereo
Codec ID : 55
Codec ID/Hint : MP3
Duration : 9mn 42s
Bit rate mode : Constant
Bit rate : 128 Kbps
Channel(s) : 2 channels
Sampling rate : 48.0 KHz
Compression mode : Lossy
Stream size : 8.88 MiB (7%)
Alignment : Aligned on interleaves
Interleave, duration : 40 ms (1.00 video frame)
Interleave, preload duration : 504 ms
Audio #2
ID : 2
Format : MPEG Audio
Format version : Version 1
Format profile : Layer 3
Codec ID : 55
Codec ID/Hint : MP3
Duration : 9mn 42s
Bit rate mode : Constant
Bit rate : 128 Kbps
Channel(s) : 2 channels
Sampling rate : 48.0 KHz
Compression mode : Lossy
Stream size : 8.88 MiB (7%)
Alignment : Aligned on interleaves
Interleave, duration : 40 ms (1.00 video frame)
Interleave, preload duration : 504 ms
Writing library : LAME3.99r
Encoding settings : -m s -V 4 -q 2 -lowpass 17 -b 128

Скриншоты

Вы не можете начинать темы
Вы не можете отвечать на сообщения
Вы не можете редактировать свои сообщения
Вы не можете удалять свои сообщения
Вы не можете голосовать в опросах
Вы не можете прикреплять файлы к сообщениям
Вы можете скачивать файлы
Sitemap