Счастливый принц (Мавзур Махмудов) [1992, Узбекистан, рисованный мультфильм, TVRip-AVC] 

Цитировать
Счастливый принц
Страна: Узбекистан
Студия: Узбекфильм
Жанр: Рисованный мультфильм
Продолжительность: 00:18:08
Год выпуска: 1992
Русские субтитры: нет-Режиссёр: Мавзур Махмудов
Описание: Мультипликационный фильм по мотивам сказки Оскара Уайльда.-Релиз: -Благодарности:
  • Спасибо Nekontroliruemij_devil за исходную запись с телеканала ТВ6-Москва
  • Спасибо xfiles за консультации и помощь в кодировании AVC
-Семпл: http://yadi.sk/i/kTWjG8FU3MJGLK
Качество: TVRip-AVC
Формат: MKV
Видео: 698x568 (4:3) @ 760x568, 25 fps, AVC ~4255 kbps avg, 0.429 bit/pixel
Аудио #1: Русский, 48 KHz, AC3, 1 ch, 192 Kbps
Аудио #2: Русский, 48 KHz, FLAC, 1 ch, 408 Kbps
Субтитры: нет

MediaInfo

GeneralUnique ID                   : 230237050613514395272330298190331078295 (0xAD360B0299294612A8C9E2FBE5C36697)Complete name               : Счастливый принц (1992) Узбекфильм TVRip-AVC.mkvFormat                      : MatroskaFormat version              : Version 4 / Version 2File size                   : 630 MiBDuration                    : 18 min 7 sOverall bit rate mode       : VariableOverall bit rate            : 4 858 kb/sEncoded date                : UTC 2017-08-24 08:15:12Writing application         : mkvmerge v9.7.1 ('Pandemonium') 64bitWriting library             : libebml v1.3.4 + libmatroska v1.4.5
VideoID : 1Format : AVCFormat/Info : Advanced Video CodecFormat profile : High@L4Format settings, CABAC : YesFormat settings, RefFrames : 16 framesCodec ID : V_MPEG4/ISO/AVCDuration : 18 min 7 sBit rate : 4 255 kb/sWidth : 698 pixelsHeight : 568 pixelsDisplay aspect ratio : 4:3Original display aspect rat : 4:3Frame rate mode : ConstantFrame rate : 25.000 FPSColor space : YUVChroma subsampling : 4:2:0Bit depth : 8 bitsScan type : ProgressiveBits/(Pixel*Frame) : 0.429Stream size : 552 MiB (88%)Writing library : x264 core 150 r2833kMod df79067Encoding settings : cabac=1 / ref=16 / deblock=1:-3:-2 / analyse=0x3:0x133 / me=umh / subme=11 / psy=1 / fade_compensate=0.00 / psy_rd=1.00:0.00 / mixed_ref=1 / me_range=48 / chroma_me=1 / trellis=2 / 8x8dct=1 / cqm=0 / deadzone=21,11 / fast_pskip=0 / chroma_qp_offset=-2 / threads=6 / lookahead_threads=1 / sliced_threads=0 / nr=0 / decimate=1 / interlaced=0 / bluray_compat=0 / constrained_intra=0 / bframes=16 / b_pyramid=2 / b_adapt=2 / b_bias=0 / direct=3 / weightb=1 / open_gop=0 / weightp=0 / keyint=250 / keyint_min=25 / scenecut=40 / intra_refresh=0 / rc=crf / mbtree=0 / crf=21.0000 / qcomp=0.60 / qpmin=0 / qpmax=69 / qpstep=4 / ip_ratio=1.40 / pb_ratio=1.30 / aq=1:0.75Default : YesForced : NoColor range : LimitedColor primaries : BT.601 PALTransfer characteristics : BT.470 System B, BT.470 System GMatrix coefficients : BT.601
Audio #1ID : 2Format : AC-3Format/Info : Audio Coding 3Format settings, Endianness : BigCodec ID : A_AC3Duration : 18 min 7 sBit rate mode : ConstantBit rate : 192 kb/sChannel(s) : 1 channelChannel positions : Front: CSampling rate : 48.0 kHzFrame rate : 31.250 FPS (1536 SPF)Bit depth : 16 bitsCompression mode : LossyStream size : 24.9 MiB (4%)Language : RussianService kind : Complete MainDefault : YesForced : No
Audio #2ID : 3Format : FLACFormat/Info : Free Lossless Audio CodecCodec ID : A_FLACDuration : 18 min 7 sBit rate mode : VariableBit rate : 408 kb/sChannel(s) : 1 channelChannel positions : Front: CSampling rate : 48.0 kHzFrame rate : 41.667 FPS (1152 SPF)Bit depth : 16 bitsStream size : 53.0 MiB (8%)Writing library : libFLAC 1.0.25 (UTC 2007-09-17)Language : RussianDefault : NoForced : No

Скриншоты

Вы не можете начинать темы
Вы не можете отвечать на сообщения
Вы не можете редактировать свои сообщения
Вы не можете удалять свои сообщения
Вы не можете голосовать в опросах
Вы не можете прикреплять файлы к сообщениям
Вы можете скачивать файлы
Sitemap