Как у нашего Омелечка... / Як у нашого Омелечка... (Евгений Сивоконь / Євген Сивокінь) [1999, Украина, музыкальный мультфильм, WEBRip] 

Цитировать
Как у нашего Омелечка небольшая семеечка... / Як у нашого Омелечка невеличка сiмеϵчка...
Страна: Украина
Жанр: музыкальный мультфильм
Продолжительность: 00:08:04
Год выпуска: 1999
Перевод: не требуется
Русские субтитры: нет
Режиссёр: Евгений Сивоконь / Євген Сивокінь
Поёт: группа "Древо"
Описание: Юмористический мультфильм по мотивам украинских народных песен: "Як у нашого Омелечка...", "Сiяв мужик просо", "А до мене Якiв приходив...", "Кину кужiль на полицю".
Качество: WEBRip
Формат: AVI
Видео: 1580 kbps, 640х480 (4:3), 25.000 fps, MPEG-4 Visual (XviD)
Аудио: 192 kbps, 44.1 kHz, 2 channels, MPEG Audio (MP3)
Субтитры: отсутствуют

Подробные технические данные

GeneralComplete name                            : Як у нашого Омелечка (1999).aviFormat                                   : AVIFormat/Info                              : Audio Video InterleaveFile size                                : 103 MiBDuration                                 : 8mn 4sOverall bit rate                         : 1 785 KbpsWriting application                      : Lavf55.19.104
VideoID : 0Format : MPEG-4 VisualFormat profile : Simple@L3Format settings, BVOP : NoFormat settings, QPel : NoFormat settings, GMC : No warppointsFormat settings, Matrix : Default (H.263)Codec ID : XVIDCodec ID/Hint : XviDDuration : 8mn 4sBit rate : 1 580 KbpsWidth : 640 pixelsHeight : 480 pixelsDisplay aspect ratio : 4:3Frame rate : 25.000 fpsColor space : YUVChroma subsampling : 4:2:0Bit depth : 8 bitsScan type : ProgressiveCompression mode : LossyBits/(Pixel*Frame) : 0.206Stream size : 91.2 MiB (89%)Writing library : XviD 73
AudioID : 1Format : MPEG AudioFormat version : Version 1Format profile : Layer 3Mode : Joint stereoMode extension : MS StereoCodec ID : 55Codec ID/Hint : MP3Duration : 8mn 4sBit rate mode : ConstantBit rate : 192 KbpsChannel(s) : 2 channelsSampling rate : 44.1 KHzCompression mode : LossyStream size : 11.1 MiB (11%)Alignment : Aligned on interleavesInterleave, duration : 26 ms (0.65 video frame)Writing library : LAME3.99.5

Скриншоты

Вы не можете начинать темы
Вы не можете отвечать на сообщения
Вы не можете редактировать свои сообщения
Вы не можете удалять свои сообщения
Вы не можете голосовать в опросах
Вы не можете прикреплять файлы к сообщениям
Вы можете скачивать файлы
Sitemap