Искатели (Мунавар Мансурходжаев) [1981, СССР, мультфильм, WEBRip] 

Цитировать
Искатели
Страна: СССР (Таджикская республика)
Жанр: мультфильм
Продолжительность: 00:09:04
Год выпуска: 1981
Перевод: не требуется
Режиссёр: Мунавар Мансурходжаев
Описание: Два археолога отправляются в жаркую пустыню на раскопки...
Качество: WEBRip
Формат: AVI
Видео: 1894 kbps, 656х496 (4:3), 25.000 fps, MPEG-4 Visual (XviD)
Аудио: 128 kbps, 44.1 kHz, 2 channels, MPEG Audio (MP3)
Субтитры: отсутствуют

Подробные технические данные

General
Complete name : Искатели. 1981.avi
Format : AVI
Format/Info : Audio Video Interleave
File size : 132 MiB
Duration : 9mn 4s
Overall bit rate : 2 032 Kbps
Writing application : VirtualDubMod 1.5.10.2 (build 2540/release)
Writing library : VirtualDubMod build 2540/release
Video
ID : 0
Format : MPEG-4 Visual
Format profile : Advanced Simple@L4
Format settings, BVOP : 2
Format settings, QPel : No
Format settings, GMC : No warppoints
Format settings, Matrix : Default (H.263)
Codec ID : XVID
Codec ID/Hint : XviD
Duration : 9mn 4s
Bit rate : 1 894 Kbps
Width : 656 pixels
Height : 496 pixels
Display aspect ratio : 4:3
Frame rate : 25.000 fps
Color space : YUV
Chroma subsampling : 4:2:0
Bit depth : 8 bits
Scan type : Progressive
Compression mode : Lossy
Bits/(Pixel*Frame) : 0.233
Stream size : 123 MiB (93%)
Writing library : XviD 73
Audio
ID : 1
Format : MPEG Audio
Format version : Version 1
Format profile : Layer 3
Codec ID : 55
Codec ID/Hint : MP3
Duration : 9mn 4s
Bit rate mode : Constant
Bit rate : 128 Kbps
Channel(s) : 2 channels
Sampling rate : 44.1 KHz
Compression mode : Lossy
Stream size : 8.31 MiB (6%)
Alignment : Split accross interleaves
Interleave, duration : 40 ms (1.00 video frame)
Interleave, preload duration : 500 ms

Скриншоты

Вы не можете начинать темы
Вы не можете отвечать на сообщения
Вы не можете редактировать свои сообщения
Вы не можете удалять свои сообщения
Вы не можете голосовать в опросах
Вы не можете прикреплять файлы к сообщениям
Вы можете скачивать файлы
Sitemap