Та сторона, где ветер (Рим Шарафутдинов) [2010, РФ, мультфильм, страшная сказка, WEBRip] 

Цитировать
Та сторона, где ветер
Страна: РФ (республика Башкортостан)
Жанр: мультфильм, страшная сказка
Продолжительность: 00:20:07
Год выпуска: 2010
Перевод: Не требуется
Режиссёр: Рим Шарафутдинов
Описание: Загадочная история по мотивам башкирских легенд.
Храбрый герой отправляется в загадочный лес, и сражается там с какой-то местной нежитью. Он побеждает, но поверженная нежить успевает укусить его и вселиться в его тело. Затем нежить под видом героя возвращается в деревню, встречает там его девушку, кусает её и переселяется в её тело. В этот момент наш герой в теле нежити тоже возвращается в деревню, чтобы всё-таки убить нежить, завладевшую его телом. Он ещё не знает, что в его теле уже находится душа девушки...

Качество: WEBRip
Формат: AVI
Видео: 2023 kbps, 720х528 (4:3), 25.000 fps, MPEG-4 Visual (XviD)
Аудио: 192 kbps, 44.1 kHz, 2 channels, MPEG Audio (MP3)
Субтитры: отсутствуют

Подробные технические данные

General
Complete name : Та сторона, где ветер (2010).avi
Format : AVI
Format/Info : Audio Video Interleave
File size : 320 MiB
Duration : 20mn 7s
Overall bit rate : 2 225 Kbps
Writing application : VirtualDubMod 1.5.10.2 (build 2540/release)
Writing library : VirtualDubMod build 2540/release
Video
ID : 0
Format : MPEG-4 Visual
Format profile : Advanced Simple@L5
Format settings, BVOP : 2
Format settings, QPel : No
Format settings, GMC : No warppoints
Format settings, Matrix : Default (H.263)
Codec ID : XVID
Codec ID/Hint : XviD
Duration : 20mn 7s
Bit rate : 2 023 Kbps
Width : 720 pixels
Height : 528 pixels
Display aspect ratio : 4:3
Frame rate : 25.000 fps
Color space : YUV
Chroma subsampling : 4:2:0
Bit depth : 8 bits
Scan type : Progressive
Compression mode : Lossy
Bits/(Pixel*Frame) : 0.213
Stream size : 291 MiB (91%)
Writing library : XviD 73
Audio
ID : 1
Format : MPEG Audio
Format version : Version 1
Format profile : Layer 3
Codec ID : 55
Codec ID/Hint : MP3
Duration : 20mn 7s
Bit rate mode : Constant
Bit rate : 192 Kbps
Channel(s) : 2 channels
Sampling rate : 44.1 KHz
Compression mode : Lossy
Stream size : 27.6 MiB (9%)
Alignment : Split accross interleaves
Interleave, duration : 40 ms (1.00 video frame)
Interleave, preload duration : 500 ms

Скриншоты

Вы не можете начинать темы
Вы не можете отвечать на сообщения
Вы не можете редактировать свои сообщения
Вы не можете удалять свои сообщения
Вы не можете голосовать в опросах
Вы не можете прикреплять файлы к сообщениям
Вы можете скачивать файлы
Sitemap