Ин и Яна (Антон Дьяков) [2014, мультфильм, DVDScreener] 

Цитировать
Ин и Яна
Страна: РФ
Жанр: мультфильм
Продолжительность: 00:10:59
Год выпуска: 2014
Русские субтитры: нет
Режиссёр: Антон Дьяков
Описание: Познавательно-развлекательный сериал о разнообразии мира, важности уважительного отношения к другим, открытости ко всему новому. В первой серии, кроме знакомства с главными героями, рассказывается о том, как различаются семейные традиции разных народов.
Доп. информация: Фильм - участник конкурсной программы фестиваля Суздаль-2014
Качество: DVDScreener
Формат: AVI
Видео: XVID, 720x584, 25fps, 1177kbps
Аудио: MPEG Layer 3, 48kHz, 2ch, 192kbps
Субтитры: отсутствуют

Подробные технические данные

Полное имя                               : Ин и Яна.avi
Формат : AVI
Формат/Информация : Audio Video Interleave
Размер файла : 108 Мбайт
Продолжительность : 10 м.
Общий поток : 1378 Кбит/сек
Программа кодирования : VirtualDubMod 1.5.10.3 | www.virtualdub-fr.org || (build 2550/release)
Библиотека кодирования : VirtualDubMod build 2550/release
Видео
Идентификатор : 0
Формат : MPEG-4 Visual
Профиль формата : Advanced Simple@L5
Параметр BVOP формата : 1
Параметр QPel формата : Нет
Параметр GMC формата : Без точки перехода
Параметр матрицы формата : Default (H.263)
Идентификатор кодека : DIVX
Идентификатор кодека/Информация : Project Mayo
Идентификатор кодека/Подсказка : DivX 4
Продолжительность : 10 м.
Битрейт : 1177 Кбит/сек
Ширина : 720 пикселей
Высота : 584 пикселя
Соотношение сторон : 5:4
Частота кадров : 23,976 кадра/сек
Цветовое пространство : YUV
Субдискретизация насыщенности : 4:2:0
Битовая глубина : 8 бит
Тип развёртки : Прогрессивная
Метод сжатия : С потерями
Бит/(Пиксели*Кадры) : 0.117
Размер потока : 92,5 Мбайт (85%)
Библиотека кодирования : XviD 1.2.1 (UTC 2008-12-04)
Аудио
Идентификатор : 1
Формат : MPEG Audio
Версия формата : Version 1
Профиль формата : Layer 3
Идентификатор кодека : 55
Идентификатор кодека/Подсказка : MP3
Продолжительность : 10 м.
Вид битрейта : Постоянный
Битрейт : 192 Кбит/сек
Каналы : 2 канала
Частота : 48,0 КГц
Метод сжатия : С потерями
Размер потока : 15,1 Мбайт (14%)
Выравнивание : Соединение по промежуткам
Продолжительность промежутка : 42 мс. (1,00 видеокадр)
Время предзагрузки промежутка : 504 мс.
Библиотека кодирования : LAME3.99r
Настройки программы : -m s -V 4 -q 0 -lowpass 18.6 -b 192

Скриншоты



Вы не можете начинать темы
Вы не можете отвечать на сообщения
Вы не можете редактировать свои сообщения
Вы не можете удалять свои сообщения
Вы не можете голосовать в опросах
Вы не можете прикреплять файлы к сообщениям
Вы можете скачивать файлы
Sitemap