Не дарите мне куйню! / Don\'t give me presents that blow! (Дмитрий Волошин / Dmitri Voloshin) [2012, мультфильм, WEBRip] 

Цитировать
Не дарите мне куйню! / Don't give me presents that blow!
Страна: Молдавия
Жанр: мультфильм
Продолжительность: 00:01:07
Год выпуска: 2012
Перевод: не требуется
Русские субтитры: нет
Режиссёр: Дмитрий Волошин / Dmitri Voloshin
Музыка: Zdob si Zdub
Описание: Смерть тоже хочет получить подарок от Санты, но пытается сделать это нечестным способом.
Доп. информация: Другие мультфильмы с этим персонажем:
Цыган - http://rutracker.org/forum/viewtopic.php?t=1531585
Джи - http://rutracker.org/forum/viewtopic.php?t=4350100
Качество: WEBRip
Формат: AVI
Видео: 1926 kbps, 720х400 (16:9), 25.000 fps, MPEG-4 Visual (XviD)
Аудио: 160 kbps, 48.0 kHz, 2 channels, MPEG Audio (MP3)
Субтитры: отсутствуют

Подробные технические данные

General
Complete name : Don't give me presents that blow.avi
Format : AVI
Format/Info : Audio Video Interleave
File size : 16.9 MiB
Duration : 1mn 7s
Overall bit rate : 2 097 Kbps
Writing application : Lavf55.33.100
Video
ID : 0
Format : MPEG-4 Visual
Format profile : Advanced Simple@L4
Format settings, BVOP : No
Format settings, QPel : No
Format settings, GMC : No warppoints
Format settings, Matrix : Default (H.263)
Codec ID : XVID
Codec ID/Hint : XviD
Duration : 1mn 7s
Bit rate : 1 926 Kbps
Width : 720 pixels
Height : 400 pixels
Display aspect ratio : 16:9
Frame rate : 25.000 fps
Color space : YUV
Chroma subsampling : 4:2:0
Bit depth : 8 bits
Scan type : Progressive
Compression mode : Lossy
Bits/(Pixel*Frame) : 0.267
Stream size : 15.5 MiB (92%)
Writing library : XviD 64
Audio
ID : 1
Format : MPEG Audio
Format version : Version 1
Format profile : Layer 3
Mode : Joint stereo
Mode extension : MS Stereo
Codec ID : 55
Codec ID/Hint : MP3
Duration : 1mn 7s
Bit rate mode : Constant
Bit rate : 160 Kbps
Channel(s) : 2 channels
Sampling rate : 48.0 KHz
Compression mode : Lossy
Stream size : 1.29 MiB (8%)
Alignment : Aligned on interleaves
Interleave, duration : 24 ms (0.60 video frame)
Interleave, preload duration : 24 ms
Writing library : LAME3.99.5

Скриншоты

Вы не можете начинать темы
Вы не можете отвечать на сообщения
Вы не можете редактировать свои сообщения
Вы не можете удалять свои сообщения
Вы не можете голосовать в опросах
Вы не можете прикреплять файлы к сообщениям
Вы можете скачивать файлы
Sitemap