Большая Козява и Маленькая Козявка (Дмитрий Шестопалов) [2014, мультфильм, DVDScreener] 

Цитировать
Большая Козява и Маленькая Козявка
Страна: Белоруссия
Жанр: мультфильм
Продолжительность: 00:04:21
Год выпуска: 2014
Русские субтитры: нет
Режиссёр: Дмитрий Шестопалов
Описание: История про то, как Большая Козява случайно встретил Маленькую Козявку. Они стали гулять вместе, открывая для себя мир дружбы, удивительных цветов и солнца. Благодаря Козявке Козява понял, что его жизнь уже не будет прежней…
Доп. информация: Фильм - участник конкурсной программы фестиваля Суздаль-2014
Качество: DVDScreener
Формат: AVI
Видео: XVID, 720x416, 25fps, 1738kbps
Аудио: MPEG Layer 3, 48kHz, 2ch, 192kbps
Субтитры: отсутствуют

Подробные технические данные

Полное имя                               : Большая Козява и Маленькая Козявка.avi
Формат : AVI
Формат/Информация : Audio Video Interleave
Размер файла : 60,5 Мбайт
Продолжительность : 4 м. 21 с.
Общий поток : 1940 Кбит/сек
Программа кодирования : VirtualDubMod 1.5.10.3 | www.virtualdub-fr.org || (build 2550/release)
Библиотека кодирования : VirtualDubMod build 2550/release
Видео
Идентификатор : 0
Формат : MPEG-4 Visual
Профиль формата : Advanced Simple@L5
Параметр BVOP формата : 1
Параметр QPel формата : Нет
Параметр GMC формата : Без точки перехода
Параметр матрицы формата : Default (H.263)
Идентификатор кодека : DIVX
Идентификатор кодека/Информация : Project Mayo
Идентификатор кодека/Подсказка : DivX 4
Продолжительность : 4 м. 21 с.
Битрейт : 1738 Кбит/сек
Ширина : 720 пикселей
Высота : 416 пикселей
Соотношение сторон : 1,731
Частота кадров : 23,976 кадра/сек
Цветовое пространство : YUV
Субдискретизация насыщенности : 4:2:0
Битовая глубина : 8 бит
Тип развёртки : Прогрессивная
Метод сжатия : С потерями
Бит/(Пиксели*Кадры) : 0.242
Размер потока : 54,2 Мбайт (90%)
Библиотека кодирования : XviD 1.2.1 (UTC 2008-12-04)
Аудио
Идентификатор : 1
Формат : MPEG Audio
Версия формата : Version 1
Профиль формата : Layer 3
Идентификатор кодека : 55
Идентификатор кодека/Подсказка : MP3
Продолжительность : 4 м. 21 с.
Вид битрейта : Постоянный
Битрейт : 192 Кбит/сек
Каналы : 2 канала
Частота : 48,0 КГц
Метод сжатия : С потерями
Размер потока : 5,99 Мбайт (10%)
Выравнивание : Соединение по промежуткам
Продолжительность промежутка : 42 мс. (1,00 видеокадр)
Время предзагрузки промежутка : 504 мс.
Библиотека кодирования : LAME3.99r
Настройки программы : -m s -V 4 -q 0 -lowpass 18.6 -b 192

Скриншоты



Вы не можете начинать темы
Вы не можете отвечать на сообщения
Вы не можете редактировать свои сообщения
Вы не можете удалять свои сообщения
Вы не можете голосовать в опросах
Вы не можете прикреплять файлы к сообщениям
Вы можете скачивать файлы
Sitemap