Песнь о зубре (Олег Белоусов) [1982, мультфильм рисованный, исторический, DVDRip] 

Цитировать
Песнь о зубре
Страна: СССР
Производство: Беларусьфильм
Жанр: мультфильм рисованный, исторический
Продолжительность: 00:17:46
Год выпуска: 1982
Русские субтитры: нет
Режиссёр: Олег Белоусов
Описание: Мультипликационный фильм по мотивам одноименной поэмы Миколы Гусовского о борьбе против татарского нашествия в XV веке. 500 лет назад, вдали от Родины, в Риме, была написана эта поэма. Великий белорусский поэт эпохи Возрождения Микола Гусовский воспел в ней красоту родной земли, ее трудную судьбу, людей сильных и стойких духом, готовых постоять за свою свободу.
Качество: DVDRip
Формат: AVI
Видео: 720x544 (1.32:1), 25 fps, XviD MPEG-4 ~2140 kbps avg, 0.219 bit/pixel
Аудио: 48.0 kHz, MPEG Layer 3, 2 ch, ~128.00 kbps avg
Субтитры: Отсутствуют

Подробные технические данные

General
Complete name : E:\1\мультики\Песнь о зубре 1982.avi
Format : AVI
Format/Info : Audio Video Interleave
File size : 290 MiB
Duration : 17mn 46s
Overall bit rate : 2 278 Kbps
Writing application : VirtualDubMod 1.5.4.1 (build 2178/release)
Writing library : VirtualDubMod build 2178/release
Video
ID : 0
Format : MPEG-4 Visual
Format profile : Advanced Simple@L5
Format settings, BVOP : 1
Format settings, QPel : No
Format settings, GMC : No warppoints
Format settings, Matrix : Custom
Codec ID : XVID
Codec ID/Hint : XviD
Duration : 17mn 46s
Bit rate : 2 140 Kbps
Width : 720 pixels
Height : 544 pixels
Display aspect ratio : 4:3
Frame rate : 25.000 fps
Color space : YUV
Chroma subsampling : 4:2:0
Bit depth : 8 bits
Scan type : Progressive
Compression mode : Lossy
Bits/(Pixel*Frame) : 0.219
Stream size : 272 MiB (94%)
Writing library : XviD 1.0.0 (UTC 2004-05-09)
Audio
ID : 1
Format : MPEG Audio
Format version : Version 1
Format profile : Layer 3
Mode : Joint stereo
Mode extension : MS Stereo
Codec ID : 55
Codec ID/Hint : MP3
Duration : 17mn 46s
Bit rate mode : Constant
Bit rate : 128 Kbps
Channel count : 2 channels
Sampling rate : 48.0 KHz
Compression mode : Lossy
Stream size : 16.3 MiB (6%)
Alignment : Aligned on interleaves
Interleave, duration : 40 ms (1.00 video frame)
Interleave, preload duration : 504 ms

Скриншоты

Вы не можете начинать темы
Вы не можете отвечать на сообщения
Вы не можете редактировать свои сообщения
Вы не можете удалять свои сообщения
Вы не можете голосовать в опросах
Вы не можете прикреплять файлы к сообщениям
Вы можете скачивать файлы
Sitemap