Натюрморт (Владимир Самсонов) [1981, СССР, мультфильм, TVRip] 

Цитировать
Натюрморт
Страна: СССР
Жанр: мультфильм
Продолжительность: 00:01:18
Год выпуска: 1981
Перевод: Не требуется
Русские субтитры: нет
Режиссёр: Владимир Самсонов
Описание: Один из фильмов Владимира Самсонова, выполненный в технике живописи на стекле. Этюд на музыку Скрябина.
Качество: TVRip
Формат: AVI
Видео: 1197 kbps, 656х544 (1.206), 25.000 fps, MPEG-4 Visual (XviD)
Аудио: 96 kbps, 44.1 kHz, 1 channel, MPEG Audio (MP3)
Субтитры: отсутствуют

Подробные технические данные

General
Complete name : Натюрморт 1981.avi
Format : AVI
Format/Info : Audio Video Interleave
File size : 12.2 MiB
Duration : 1mn 18s
Overall bit rate : 1 303 Kbps
Writing application : VirtualDubMod 1.5.10.2 (build 2540/release)
Writing library : VirtualDub build 35491/release
Video
ID : 0
Format : MPEG-4 Visual
Format profile : Simple@L5
Format settings, BVOP : No
Format settings, QPel : No
Format settings, GMC : No warppoints
Format settings, Matrix : Default (H.263)
Codec ID : XVID
Codec ID/Hint : XviD
Duration : 1mn 18s
Bit rate : 1 197 Kbps
Width : 656 pixels
Height : 544 pixels
Display aspect ratio : 1.206
Frame rate : 25.000 fps
Color space : YUV
Chroma subsampling : 4:2:0
Bit depth : 8 bits
Scan type : Progressive
Compression mode : Lossy
Bits/(Pixel*Frame) : 0.134
Stream size : 11.2 MiB (92%)
Writing library : XviD 64
Audio
ID : 1
Format : MPEG Audio
Format version : Version 1
Format profile : Layer 3
Codec ID : 55
Codec ID/Hint : MP3
Duration : 1mn 18s
Bit rate mode : Constant
Bit rate : 96.0 Kbps
Channel(s) : 1 channel
Sampling rate : 44.1 KHz
Compression mode : Lossy
Stream size : 917 KiB (7%)
Alignment : Split accross interleaves
Interleave, duration : 40 ms (1.01 video frame)
Interleave, preload duration : 500 ms

Скриншоты

Вы не можете начинать темы
Вы не можете отвечать на сообщения
Вы не можете редактировать свои сообщения
Вы не можете удалять свои сообщения
Вы не можете голосовать в опросах
Вы не можете прикреплять файлы к сообщениям
Вы можете скачивать файлы
Sitemap