Белорусская колыбельная (Елизавета Скворцова) [2007, Россия, музыкальный мультфильм, WEBRip] из цикла "Колыбельные Мира" 

Цитировать
Белорусская колыбельная
Страна: Россия
Жанр: музыкальный мультфильм
Продолжительность: 00:04:05
Год выпуска: 2007
Режиссёр: Елизавета Скворцова
Описание: Экранизация белорусской шуточной калыханки.
Перед началом дети рассказывают про Беларусь.
Качество: WEBRip
Формат: AVI
Видео: 1782 kbps, 608х480 (5:4), 25.000 fps, MPEG-4 Visual (XviD)
Аудио: 128 kbps, 44.1 kHz, 2 channels, MPEG Audio (MP3)
Субтитры: отсутствуют

Подробные технические данные

General
Complete name : Белорусская колыбельная.avi
Format : AVI
Format/Info : Audio Video Interleave
File size : 56.2 MiB
Duration : 4mn 5s
Overall bit rate : 1 920 Kbps
Writing application : Lavf55.33.100
Writing library : VirtualDub build 35491/release
Video
ID : 0
Format : MPEG-4 Visual
Format profile : Advanced Simple@L4
Format settings, BVOP : 2
Format settings, QPel : No
Format settings, GMC : No warppoints
Format settings, Matrix : Default (H.263)
Codec ID : XVID
Codec ID/Hint : XviD
Duration : 4mn 5s
Bit rate : 1 782 Kbps
Width : 608 pixels
Height : 480 pixels
Display aspect ratio : 5:4
Frame rate : 25.000 fps
Color space : YUV
Chroma subsampling : 4:2:0
Bit depth : 8 bits
Scan type : Progressive
Compression mode : Lossy
Bits/(Pixel*Frame) : 0.244
Stream size : 52.2 MiB (93%)
Writing library : XviD 64
Audio
ID : 1
Format : MPEG Audio
Format version : Version 1
Format profile : Layer 3
Mode : Joint stereo
Mode extension : MS Stereo
Codec ID : 55
Codec ID/Hint : MP3
Duration : 4mn 5s
Bit rate mode : Constant
Bit rate : 128 Kbps
Channel(s) : 2 channels
Sampling rate : 44.1 KHz
Compression mode : Lossy
Stream size : 3.74 MiB (7%)
Alignment : Split accross interleaves
Interleave, duration : 40 ms (1.00 video frame)
Interleave, preload duration : 500 ms

Скриншоты

Другие раздачи этого цикла

Английская колыбельная - http://rutracker.org/forum/viewtopic.php?t=5290418
Аргентинская колыбельная - http://rutracker.org/forum/viewtopic.php?t=5283872
Венгерская колыбельная - http://rutracker.org/forum/viewtopic.php?t=5330237
Голландская колыбельная - http://rutracker.org/forum/viewtopic.php?t=5359662
Грузинская колыбельная - http://rutracker.org/forum/viewtopic.php?t=5407932
Датская колыбельная - http://rutracker.org/forum/viewtopic.php?t=5287128
Ирландская колыбельная - http://rutracker.org/forum/viewtopic.php?t=5373981
Казахская колыбельная - http://rutracker.org/forum/viewtopic.php?t=5345314
Китайская колыбельная - http://rutracker.org/forum/viewtopic.php?t=5392616
Колыбельная Датогов - http://rutracker.org/forum/viewtopic.php?t=5371247
Колыбельная Конго - http://rutracker.org/forum/viewtopic.php?t=5320705
Лапландская колыбельная - http://rutracker.org/forum/viewtopic.php?t=5327598
Латышская колыбельная - http://rutracker.org/forum/viewtopic.php?t=5310606
Литовская колыбельная - http://rutracker.org/forum/viewtopic.php?t=5293936
Мексиканская колыбельная - http://rutracker.org/forum/viewtopic.php?t=5304019
Норвежская колыбельная - http://rutracker.org/forum/viewtopic.php?t=5356069
Пакистанская колыбельная - http://rutracker.org/forum/viewtopic.php?t=5396070
Польская колыбельная - http://rutracker.org/forum/viewtopic.php?t=5378618
Португальская колыбельная - http://rutracker.org/forum/viewtopic.php?t=5280572
Русская колыбельная - http://rutracker.org/forum/viewtopic.php?t=5415375
Сефардская колыбельная - http://rutracker.org/forum/viewtopic.php?t=5297402
Татарская колыбельная - http://rutracker.org/forum/viewtopic.php?t=5363622
Хорватская колыбельная - http://rutracker.org/forum/viewtopic.php?t=5300833
Швейцарская колыбельная - http://rutracker.org/forum/viewtopic.php?t=5337504
Эвенкийская колыбельная - http://rutracker.org/forum/viewtopic.php?t=5341745
Эстонская колыбельная - http://rutracker.org/forum/viewtopic.php?t=5317197
Вы не можете начинать темы
Вы не можете отвечать на сообщения
Вы не можете редактировать свои сообщения
Вы не можете удалять свои сообщения
Вы не можете голосовать в опросах
Вы не можете прикреплять файлы к сообщениям
Вы можете скачивать файлы
Sitemap