Та черепаха (Сергей Меринов) [2016, Россия, мультфильм, WEBRip-AVC] 

Цитировать
Та черепаха
Страна: Россия
Жанр: мультфильм
Продолжительность: 00:14:46
Год выпуска: 2016
Режиссёр: Сергей Меринов
Текст читает: Абелардо Альфонсо Лопес
Музыка: "Lόpez Jazz"
Описание: Три кубинские сказки:
"Черепаха и бананы" (режиссёр Саша Геометрический)
"Черепаха и Олень" (режиссёр Наталья Фомичева)
"Кролик и Удав" (режиссёр Ася Стрельбицкая)
Доп. информация: Диплом в номинации "Анимация" - Кинофестиваль "Отцы и дети" (2016)
Качество: WEBRip-AVC
Формат: MP4
Видео: 2146 kbps, 1280х720 (16:9), 25.000 fps, AVC (High@L3.1)
Аудио: 126 kbps, 44.1 kHz, 2 channels, AAC (LC)
Субтитры: отсутствуют

Подробные технические данные

General
Complete name : Та черепаха (2016).mp4
Format : MPEG-4
Format profile : Base Media / Version 2
Codec ID : mp42
File size : 240 MiB
Duration : 14mn 46s
Overall bit rate mode : Variable
Overall bit rate : 2 275 Kbps
Encoded date : UTC 2016-06-17 08:35:11
Tagged date : UTC 2016-06-17 08:35:11
gsst : 0
gstd : 886050
Video
ID : 1
Format : AVC
Format/Info : Advanced Video Codec
Format profile : Main@L3.1
Format settings, CABAC : Yes
Format settings, ReFrames : 3 frames
Codec ID : avc1
Codec ID/Info : Advanced Video Coding
Duration : 14mn 46s
Bit rate : 2 146 Kbps
Width : 1 280 pixels
Height : 720 pixels
Display aspect ratio : 16:9
Frame rate mode : Constant
Frame rate : 25.000 fps
Color space : YUV
Chroma subsampling : 4:2:0
Bit depth : 8 bits
Scan type : Progressive
Bits/(Pixel*Frame) : 0.093
Stream size : 227 MiB (94%)
Title : ISO Media file produced by Google Inc.
Encoded date : UTC 2016-06-17 08:35:11
Tagged date : UTC 2016-06-17 08:35:11
Color primaries : BT.709
Transfer characteristics : BT.709
Matrix coefficients : BT.709
Audio
ID : 2
Format : AAC
Format/Info : Advanced Audio Codec
Format profile : LC
Codec ID : 40
Duration : 14mn 46s
Bit rate mode : Variable
Bit rate : 126 Kbps
Channel(s) : 2 channels
Channel positions : Front: L R
Sampling rate : 44.1 KHz
Compression mode : Lossy
Stream size : 13.3 MiB (6%)
Title : ISO Media file produced by Google Inc.
Encoded date : UTC 2016-06-17 08:35:11
Tagged date : UTC 2016-06-17 08:35:11

Скриншоты

Вы не можете начинать темы
Вы не можете отвечать на сообщения
Вы не можете редактировать свои сообщения
Вы не можете удалять свои сообщения
Вы не можете голосовать в опросах
Вы не можете прикреплять файлы к сообщениям
Вы можете скачивать файлы
Sitemap