Боевые страницы (Дмитрий Бабиченко) [1939, мультипликационный фильм-плакат, DVDRip] Eng hardsub 

Цитировать
Боевые страницы- Страна: СССР
Жанр: мультипликационный фильм-плакат
Продолжительность: 00:09:00
Год выпуска: 1939
Русские субтитры: нет-Режиссёр: Дмитрий Бабиченко- | Релиз: -Описание: О славных страницах истории Советской Армии.-Качество: DVDRip
Формат: AVI
Видео: 640x480 (1.33:1), 25 fps, XviD MPEG-4 ~1902 kbps avg, 0.25 bit/pixel
Аудио: 48 kHz, AC3 Dolby Digital, 2/0 (L,R) ch, ~224 kbps
Субтитры: английские вшитые (hardsub)

MediaInfo

General
Complete name : Боевые страницы.1939.XviD.AC3-rutracker.avi
Format : AVI
Format/Info : Audio Video Interleave
File size : 138 MiB
Duration : 9mn 0s
Overall bit rate : 2 136 Kbps
Movie name : Боевые страницы.1939.XviD.AC3-rutracker
Writing application : VirtualDubMod 1.5.10.2 (build 2542/release)
Comment : РГ Мультфильмы / Rutracker.org
Video
ID : 0
Format : MPEG-4 Visual
Format profile : Advanced Simple@L5
Format settings, BVOP : 2
Format settings, QPel : No
Format settings, GMC : No warppoints
Format settings, Matrix : Custom
Codec ID : XVID
Codec ID/Hint : XviD
Duration : 9mn 0s
Bit rate : 1 902 Kbps
Width : 640 pixels
Height : 480 pixels
Display aspect ratio : 4:3
Frame rate : 25.000 fps
Color space : YUV
Chroma subsampling : 4:2:0
Bit depth : 8 bits
Scan type : Progressive
Compression mode : Lossy
Bits/(Pixel*Frame) : 0.248
Stream size : 123 MiB (89%)
Writing library : XviD 65
Audio
ID : 1
Format : AC-3
Format/Info : Audio Coding 3
Mode extension : CM (complete main)
Format settings, Endianness : Big
Codec ID : 2000
Duration : 9mn 0s
Bit rate mode : Constant
Bit rate : 224 Kbps
Channel(s) : 2 channels
Channel positions : Front: L R
Sampling rate : 48.0 KHz
Compression mode : Lossy
Stream size : 14.4 MiB (10%)
Alignment : Split accross interleaves
Interleave, duration : 40 ms (1.00 video frame)
Interleave, preload duration : 500 ms
Вы не можете начинать темы
Вы не можете отвечать на сообщения
Вы не можете редактировать свои сообщения
Вы не можете удалять свои сообщения
Вы не можете голосовать в опросах
Вы не можете прикреплять файлы к сообщениям
Вы можете скачивать файлы
Sitemap