Великан попал в беду (Кто стучится в дверь ко мне?) / Hiiglane hädas (Kes koputab mu uksele?) / Giant (Who\'s knocking at my door?) (Рихо Луусе / Riho Luuse) [1993, Эстония, мультфильм, WEBRip] 

Цитировать
Великан попал в беду (Кто стучится в дверь ко мне?) / Hiiglane hädas (Kes koputab mu uksele?) / Giant (Who's knocking at my door?)
Страна: Эстония
Жанр: мультфильм
Продолжительность: 00:06:48
Год выпуска: 1993
Режиссёр: Рихо Луусе / Riho Luuse
Описание: Однажды, шагая по лесу, великан занозил ногу. Он отправился за помощью в избушку, где жили Белая Волшебница и лесовичок Муфтик.
Доп. информация: "Кто стучится в дверь ко мне?" - серия из 11 мультфильмов, над которой работали 9 режиссёров (Рейн Раамат, Мари-Лиис Моонвальд, Лия Саккос, Эло Полендик, Ану Нукки, Эда Кург, Неле Тихмяэ, Рихо Луусе, Райт Тийдус)
Качество: WEBRip
Формат: AVI
Видео: 2091 kbps, 624х480 (4:3), 24.000 fps, MPEG-4 Visual (XviD)
Аудио: 128 kbps, 44.1 kHz, 2 channels, MPEG Audio (MP3)
Субтитры: отсутствуют

Подробные технические данные

General
Complete name : Kes koputab mu uksele. Hiiglane hadas.avi
Format : AVI
Format/Info : Audio Video Interleave
File size : 109 MiB
Duration : 6mn 48s
Overall bit rate : 2 232 Kbps
Writing library : VirtualDub build 35491/release
Video
ID : 0
Format : MPEG-4 Visual
Format profile : Advanced Simple@L4
Format settings, BVOP : 2
Format settings, QPel : No
Format settings, GMC : No warppoints
Format settings, Matrix : Default (H.263)
Codec ID : XVID
Codec ID/Hint : XviD
Duration : 6mn 48s
Bit rate : 2 091 Kbps
Width : 624 pixels
Height : 480 pixels
Display aspect ratio : 4:3
Frame rate : 25.000 fps
Color space : YUV
Chroma subsampling : 4:2:0
Bit depth : 8 bits
Scan type : Progressive
Compression mode : Lossy
Bits/(Pixel*Frame) : 0.279
Stream size : 102 MiB (94%)
Writing library : XviD 64
Audio
ID : 1
Format : MPEG Audio
Format version : Version 1
Format profile : Layer 3
Mode : Joint stereo
Mode extension : MS Stereo
Codec ID : 55
Codec ID/Hint : MP3
Duration : 6mn 48s
Bit rate mode : Constant
Bit rate : 128 Kbps
Channel(s) : 2 channels
Sampling rate : 44.1 KHz
Compression mode : Lossy
Stream size : 6.24 MiB (6%)
Alignment : Aligned on interleaves
Interleave, duration : 26 ms (0.65 video frame)
Interleave, preload duration : 522 ms
Writing library : LAME3.99

Скриншоты

Вы не можете начинать темы
Вы не можете отвечать на сообщения
Вы не можете редактировать свои сообщения
Вы не можете удалять свои сообщения
Вы не можете голосовать в опросах
Вы не можете прикреплять файлы к сообщениям
Вы можете скачивать файлы
Sitemap