(Английский, Французский) Le Chat Potte - Puss in Boots / Кот в сапогах - мультфильм для детей всех возрастов на французском и английском языках с субтитрами [2011, BDrip 1080p, FRA / ENG] + SUB [FRA / ENG] 

Цитировать
Le Chat Potté - Puss in Boots/ Кот в сапогах - мультфильм для детей всех возрастов на французском и английском языках с субтитрами
Год выпуска: 2011
Страна: США
Режиссёр: Крис Миллер / Chris Miller
Производитель: DreamWorks Animation
Год выпуска оригинала: 2011
Название оригинала: Puss in Boots
Категория: Обучающее видео
Язык: французский, английский
Субтитры: французские (2), английские (Français, Français Forcé , Anglais)
Продолжительность: 1 час 30 мин.
Формат: MKV
Качество: 1080P(X264)
Описание:
«Мечи пересекутся и сердца будут разбиты в приключениях…»
А как же без этого?!!
Ведь легендарный КОТ В САПОГАХ, детище великого Шарля Перро, стал Героем еще задолго до знакомства со Шрэком, когда вместе с гениальным стратегом Шалтаем-Болтаем и очаровательной, но коварной, Кисой Мягколапкой он спас родной город… Это правдивая история о КОТЕ, о ЛЕГЕНДЕ и... о САПОГАХ…

Большинство уже наверняка посмотрели этот захватывающий, полный приключений мультфильм в дублированной русской версии. Теперь можно не только насладится им вновь на языке оригинала, но и в профессиональном переводе на французский.
Для детей изучающих параллельно несколько иностранных языков языков, просмотр одного и того же отрывка на разных языках позволяет быстро освободится от комплекса «одноязычности», развивает умение быстро переключаться с одного языка на другой, и в конце концов «забывать» на каком языке ему подана та или иная информация…
Для детей постарше, очень полезно под руководством преподавателя проводить «сравнительный анализ» услышанного и прочитанного (в данном случае в этом помогут субтитры); обратить внимание на построение отдельных аналогичных фраз, лексико-грамматическую структуру предложений, наконец - фонетику…. Обязательно найти что-то общее, и выявить кардинальные различия… Конечно, ученику будет гораздо приятнее заниматься такими «скучными» на первый взгляд вещами, используя в качестве учебного материала любимый мультфильм, а не только традиционные пособия.Приятного и полезного всем просмотра!

Данные видео/аудио

Общее
Уникальный идентификатор : 198227596987770721025341402832596387742 (0x95213F1997CAE37AB1BE9D10559C479E)
Полное имя : F:\Gala\French\- My French Torrents\Le Chat Potte - Puss in Boots 2011\Le Chat Potte 2011 1080p Chapters MULTi DTS-HDMA AC3 x264-.mkv
Формат : Matroska
Версия формата : Version 2
Размер файла : 6,44 Гбайт
Продолжительность : 1 ч. 30 м.
Режим общего битрейта : Переменный
Общий поток : 10,2 Мбит/сек
Дата кодирования : UTC 2012-02-13 10:10:06
Программа кодирования : mkvmerge v5.3.0 ('I could have danced') built on Feb 9 2012 10:38:07
Библиотека кодирования : libebml v1.2.3 + libmatroska v1.3.0
Видео
Идентификатор : 1
Формат : AVC
Формат/Информация : Advanced Video Codec
Профиль формата : High@L4.1
Параметр CABAC формата : Да
Параметр ReFrames формата : 4 кадра
Идентификатор кодека : V_MPEG4/ISO/AVC
Продолжительность : 1 ч. 30 м.
Битрейт : 7775 Кбит/сек
Номинальный битрейт : 7350 Кбит/сек
Ширина : 1920 пикселей
Высота : 1080 пикселей
Соотношение сторон : 16:9
Частота кадров : 23,976 кадра/сек
Цветовое пространство : YUV
Субдискретизация насыщенности : 4:2:0
Битовая глубина : 8 бит
Тип развёртки : Прогрессивная
Бит/(Пиксели*Кадры) : 0.156
Размер потока : 4,90 Гбайт (76%)
Заголовок : Le Chat Potté 2011 1080p Blu-Ray Chapters MULTi DTS-HDMA AC3 x264-GAÏA
Библиотека кодирования : x264 core 120 r2164 da19765
Настройки программы : cabac=1 / ref=4 / deblock=1:-3:-3 / analyse=0x3:0x113 / me=umh / subme=11 / psy=1 / psy_rd=0.90:0.10 / mixed_ref=1 / me_range=128 / chroma_me=1 / trellis=2 / 8x8dct=1 / cqm=0 / deadzone=6,6 / fast_pskip=0 / chroma_qp_offset=-3 / threads=12 / sliced_threads=0 / nr=0 / decimate=0 / interlaced=0 / bluray_compat=0 / constrained_intra=0 / bframes=8 / b_pyramid=2 / b_adapt=2 / b_bias=0 / direct=3 / weightb=1 / open_gop=1 / weightp=2 / keyint=240 / keyint_min=23 / scenecut=40 / intra_refresh=0 / rc_lookahead=240 / rc=2pass / mbtree=1 / bitrate=7350 / ratetol=1.0 / qcomp=0.60 / qpmin=0 / qpmax=69 / qpstep=4 / cplxblur=20.0 / qblur=0.5 / vbv_maxrate=50000 / vbv_bufsize=50000 / nal_hrd=none / ip_ratio=1.40 / aq=2:1.00
Язык : French
Основные цвета : BT.709-5, BT.1361, IEC 61966-2-4, SMPTE RP177
Характеристики трансфера : BT.709-5, BT.1361
Коэффициенты матрицы : BT.709-5, BT.1361, IEC 61966-2-4 709, SMPTE RP177
Аудио #1
Идентификатор : 2
Формат : AC-3
Формат/Информация : Audio Coding 3
Расширение режима : CM (complete main)
Идентификатор кодека : A_AC3
Продолжительность : 1 ч. 30 м.
Вид битрейта : Постоянный
Битрейт : 640 Кбит/сек
Каналы : 6 каналов
Расположение каналов : Front: L C R, Side: L R, LFE
Частота : 48,0 КГц
Битовая глубина : 16 бит
Метод сжатия : С потерями
Размер потока : 413 Мбайт (6%)
Заголовок : Le Chat Potté 2011 AC3@640 Kbps 5.1 FR(VFQ)
Язык : French
Аудио #2
Идентификатор : 3
Формат : DTS
Формат/Информация : Digital Theater Systems
Профиль формата : MA / Core
Идентификатор кодека : A_DTS
Продолжительность : 1 ч. 30 м.
Вид битрейта : Переменный
Битрейт : 1597 Кбит/сек / 1510 Кбит/сек
Каналы : 8 каналов / 6 каналов
Расположение каналов : Front: L C R, Side: L R, Back: L R, LFE / Front: L C R, Side: L R, LFE
Частота : 48,0 КГц
Битовая глубина : 16 бит
Метод сжатия : Без потерь / Lossy
Заголовок : Le Chat Potté 2011 DTS-HDMA@2222 Kbps 5.1 ENG (16-bits)
Язык : English
Текст #1
Идентификатор : 4
Формат : UTF-8
Идентификатор кодека : S_TEXT/UTF8
Идентификатор кодека/Информация : UTF-8 Plain Text
Заголовок : Le Chat Potté 2011 SubFORCED FR
Язык : French
Текст #2
Идентификатор : 5
Формат : UTF-8
Идентификатор кодека : S_TEXT/UTF8
Идентификатор кодека/Информация : UTF-8 Plain Text
Заголовок : Le Chat Potté 2011 Subtitles FRENCH
Язык : French
Текст #3
Идентификатор : 6
Формат : UTF-8
Идентификатор кодека : S_TEXT/UTF8
Идентификатор кодека/Информация : UTF-8 Plain Text
Заголовок : Le Chat Potté 2011 Subtitles ENGLISH
Язык : English
Меню
00:00:00.000 : fr:Le Chat Potté 2011 Chapitre 01
00:03:25.246 : fr:Le Chat Potté 2011 Chapitre 02
00:07:20.148 : fr:Le Chat Potté 2011 Chapitre 03
00:11:46.831 : fr:Le Chat Potté 2011 Chapitre 04
00:15:53.369 : fr:Le Chat Potté 2011 Chapitre 05
00:19:23.537 : fr:Le Chat Potté 2011 Chapitre 06
00:25:58.348 : fr:Le Chat Potté 2011 Chapitre 07
00:29:22.427 : fr:Le Chat Potté 2011 Chapitre 08
00:34:06.461 : fr:Le Chat Potté 2011 Chapitre 09
00:39:17.438 : fr:Le Chat Potté 2011 Chapitre 10
00:44:12.107 : fr:Le Chat Potté 2011 Chapitre 11
00:49:34.054 : fr:Le Chat Potté 2011 Chapitre 12
00:54:05.951 : fr:Le Chat Potté 2011 Chapitre 13
00:57:38.204 : fr:Le Chat Potté 2011 Chapitre 14
01:03:05.990 : fr:Le Chat Potté 2011 Chapitre 15
01:08:14.715 : fr:Le Chat Potté 2011 Chapitre 16
01:16:51.773 : fr:Le Chat Potté 2011 Chapitre 17
01:19:42.194 : fr:Le Chat Potté 2011 Chapitre 18
Мультфильм на русском, украинском и английском языках можно также найти здесь:
http://rutracker.org/forum/viewtopic.php?t=3945971
http://rutracker.org/forum/viewtopic.php?t=3940280
http://rutracker.org/forum/viewtopic.php?t=3959716
http://rutracker.org/forum/viewtopic.php?t=3959706
http://rutracker.org/forum/viewtopic.php?t=3959425
http://rutracker.org/forum/viewtopic.php?t=3945768
http://rutracker.org/forum/viewtopic.php?t=3943562 и др.
Примечание:
При наличии в файле звуковой дорожки на родном языке «наслаждаться» мультиком конечно легче, но для изучения иностранных языков - все-таки лучше, если она отсутствует: у ребенка стимулируется желание «до всего дойти самому», а не просто «подслушать» или «подглядеть», т.е. появляется МОТИВАЦИЯ - а это ОЧЕНЬ ВАЖНО в любом учебном процессе.
Релиз группы:
Вы не можете начинать темы
Вы не можете отвечать на сообщения
Вы не можете редактировать свои сообщения
Вы не можете удалять свои сообщения
Вы не можете голосовать в опросах
Вы не можете прикреплять файлы к сообщениям
Вы можете скачивать файлы
Sitemap