(Английский, Испанский) Dora the Explorer: Dora\'s Christmas / Дора - исследователь: Рождество Доры [2004, AVI, DVDRip, ENG / ESP] 

Цитировать
Dora the Explorer: Dora's Christmas / Дора - исследователь: Рождество Доры
Год выпуска: 2004
Страна: США
Издательство: Nickelodeon
Жанр: Oбучающее видео для детей
Продолжительность: 01:34:19
Язык: Английский
Перевод: отсутствует
Описание:
Веселый учебный мультик для детей от 2х лет. Даша – маленькая испанская школьница, которая вместе со своим другом обезьянкой Башмачком в игровой форме учат наших детей арифметике и английскому, наблюдательности и внимательности, вежливости и этикету.
Nickelodeon's bilingual heroine celebrates the holiday season with this spirited collection. Dora and her friend Boots the monkey climb over the snowy mountains and across the icy river to the North Pole. Dora's got a present for Santa, but she will need help from Map, Backpack, and alert viewers to complete tasks that will advance the journey and enable her to deliver the present on time. Even Swiper the fox has the holiday spirit -- he grabs the gift but returns it when he learns it is for Santa. This 25-minute episode ends on a happy note as Santa (voiced by Esai Morales) and his elves join Dora for a rousing rendition of "Feliz Navidad." As an added present, this video also includes another Dora interactive adventure, in which Dora's fastest friend, Tico, must race to the top of Snowy Mountain to retrieve Boots's toy fire truck before Swiper makes off with it. The DVD contains two bonus episodes, "School Pet" and "Quack! Quack!".
Качество: DVDRip
Формат: AVI
Видео кодек: Xvid
Аудио кодек: MP3
Видео: Xvid 608x448 25fps
Аудио: MP3 48000Hz stereo 128kbps

Скриншоты

MediaInfo

GeneralFormat                         : AVIFormat/Info                    : Audio Video InterleaveFile size                      : 695 MiBDuration                       : 1 h 34 minOverall bit rate               : 1 031 kb/sWriting application            : VirtualDubMod 1.5.10.2 (build 2540/release)Writing library                : VirtualDubMod build 2540/release
VideoID : 0Format : MPEG-4 VisualFormat profile : Advanced Simple@L5Format settings, BVOP : 2Format settings, QPel : NoFormat settings, GMC : No warppointsFormat settings, Matrix : Default (MPEG)Muxing mode : Packed bitstreamCodec ID : XVIDCodec ID/Hint : XviDDuration : 1 h 34 minBit rate : 893 kb/sWidth : 608 pixelsHeight : 448 pixelsDisplay aspect ratio : 4:3Frame rate : 25.000 FPSColor space : YUVChroma subsampling : 4:2:0Bit depth : 8 bitsScan type : ProgressiveCompression mode : LossyBits/(Pixel*Frame) : 0.131Stream size : 603 MiB (87%)Writing library : XviD 1.1.2 (UTC 2006-11-01)
AudioID : 1Format : MPEG AudioFormat version : Version 1Format profile : Layer 3Mode : Joint stereoMode extension : MS StereoCodec ID : 55Codec ID/Hint : MP3Duration : 1 h 34 minBit rate mode : ConstantBit rate : 128 kb/sChannel(s) : 2 channelsSampling rate : 48.0 kHzCompression mode : LossyStream size : 86.3 MiB (12%)Alignment : Aligned on interleavesInterleave, duration : 40 ms (1.00 video frame)Interleave, preload duration : 504 ms
Все раздачи с Дорой (Дашей)
Вы не можете начинать темы
Вы не можете отвечать на сообщения
Вы не можете редактировать свои сообщения
Вы не можете удалять свои сообщения
Вы не можете голосовать в опросах
Вы не можете прикреплять файлы к сообщениям
Вы можете скачивать файлы
Sitemap