Игра (Борис Тузанович) [1988, СССР, мультфильм, сатира, TVRip] 

Цитировать
Игра
Страна: СССР
Жанр: мультфильм, сатира
Продолжительность: 00:02:03
Год выпуска: 1988
Режиссёр: Борис Тузанович
Описание: В фойе кинотеатра возле игрового автомата толпятся звери. Аттракцион называется "Охота", и всем охота пострелять...
Качество: TVRip
Формат: AVI
Видео: 1958 kbps, 512х384 (4:3), 25.000 fps, MPEG-4 Visual (XviD)
Аудио: 96 kbps, 44.1 kHz, 1 channel, MPEG Audio (MP3)
Субтитры: отсутствуют

Подробные технические данные

General
Complete name : Игра. 1988.avi
Format : AVI
Format/Info : Audio Video Interleave
File size : 30.3 MiB
Duration : 2mn 3s
Overall bit rate : 2 065 Kbps
Movie name : Igra
Director : TO Ekran
Recorded date : 1988
Writing application : VirtualDubMod 1.5.10.2 (build 2542/release)
Writing library : VirtualDubMod build 2542/release
Comment : TVrip by Turtle / DivX Pro 5.2.1 @ 0,40 bpp / Lame MP3 44,1 kHz Mono @ 96 kbps
Video
ID : 0
Format : MPEG-4 Visual
Format settings, BVOP : 1
Format settings, QPel : No
Format settings, GMC : No warppoints
Format settings, Matrix : Default (H.263)
Muxing mode : Packed bitstream
Codec ID : DX50
Codec ID/Hint : DivX 5
Duration : 2mn 3s
Bit rate : 1 958 Kbps
Width : 512 pixels
Height : 384 pixels
Display aspect ratio : 4:3
Frame rate : 25.000 fps
Color space : YUV
Chroma subsampling : 4:2:0
Bit depth : 8 bits
Scan type : Progressive
Compression mode : Lossy
Bits/(Pixel*Frame) : 0.398
Stream size : 28.7 MiB (95%)
Writing library : DivX 5.2.1 Beta (UTC 2004-09-08)
Audio
ID : 1
Format : MPEG Audio
Format version : Version 1
Format profile : Layer 3
Codec ID : 55
Codec ID/Hint : MP3
Duration : 2mn 2s
Bit rate mode : Constant
Bit rate : 96.0 Kbps
Channel(s) : 1 channel
Sampling rate : 44.1 KHz
Compression mode : Lossy
Delay relative to video : 80ms
Stream size : 1.41 MiB (5%)
Alignment : Split accross interleaves
Interleave, duration : 40 ms (1.00 video frame)
Interleave, preload duration : 500 ms

Скриншоты

Вы не можете начинать темы
Вы не можете отвечать на сообщения
Вы не можете редактировать свои сообщения
Вы не можете удалять свои сообщения
Вы не можете голосовать в опросах
Вы не можете прикреплять файлы к сообщениям
Вы можете скачивать файлы
Sitemap