Гончие / Сезон: 6 / Фильм 3-6 / Серии: 1-16(9-24) из 16(24) (Валерий Мызников) [2014, Детектив, Криминал, HDTV 1080i] 

Цитировать
Гончие 6
Год выпуска: 2014
Производство: Россия, "Форвард-Фильм", "Студия Панорама"
Жанр: Детектив, Криминал
Продолжительность: ~ 00:45:00
Режиссёр: Валерий Мызников
В ролях: Сергей Маховиков, Андрей Семёнов, Павел Гончаров, Александр Баргман, Мария Ахметзянова, Антон Юрьев, Сергей Мардарь, Михаил Бракоренко, Артур Федынко, Анна Миклош, Ирина Гершт, Оксана Сырцова, Сергей Гарусов, Андрей Некрасов, Наталья Мызникова, Сергей Лопухов, Ксения Алексеева, Андрей Аладьин, Артём Цыпин
Описание: Реорганизовав розыскной отдел УФСИН, генерал Шалимов решает поручить его руководство новому человеку – подполковнику Рубцову, многие годы прослужившему начальником оперчасти одной из отдалённых колоний. Едва прибыв на новое место службы, Рубцов сразу же столкнулся с проблемой кадров. В его подчинении оказываются очень разные люди: это бывший спецназовец Белояров, не имеющий навыков оперативной работы, аналитик Скворцов, почти лишённый, в свою очередь, боевого опыта, а также молодая хваткая Яна Щукина, назначение которой становится первой личной инициативой Рубцова. Вместе им предстоит налаживать работу своего подразделения «с нуля», причём, в боевом режиме, ведь беглые зеки не станут дожидаться, пока оперативники, наконец, смогут найти друг с другом общий язык.
Начало сезона
Все раздачи сериала
Сэмпл
Релиз: Nikolspup
Качество: HDTV 1080i
Формат: TS
Видео кодек: H.264
Аудио кодек: MP2
Видео: MPEG-4 AVC (H.264), 1920x1080, ~ 7900 Кбит/с, 25fps, (0.152 bit/pixel)
Аудио: 48.0 kHz, MP2, 2 ch, 192 Kbps
Доп. информация:
Фильм третий. «Жизнь взаймы» часть 1-4 (Серии 1-4)
Фильм четвёртый. «Партия в Поддавки» часть 1-4 (Серии 5-8)
Фильм пятый. «Стрельба по колёсам» часть 1-4 (Серии 9-12)
Фильм шестой «Ящик Пандоры» часть 1-4 (Серии 13-16)

MI

Общее
Идентификатор : 1 (0x1)
Полное имя : F:\Фильмы торренты\Gonchie-6.2014.HDTV.(1080i).Nikolspup\Gonchie-6.(01.seriya.iz.16).2014.HDTV.(1080i).Nikolspup.ts
Формат : MPEG-TS
Размер файла : 2,63 Гбайт
Продолжительность : 44 м.
Режим общего битрейта : Переменный
Общий поток : 8475 Кбит/сек
Видео
Идентификатор : 67 (0x43)
Идентификатор меню : 1 (0x1)
Формат : AVC
Формат/Информация : Advanced Video Codec
Профиль формата : Main@L4
Параметр CABAC формата : Да
Параметр ReFrames формата : 2 кадра
Параметр GOP формата : M=3, N=30
Идентификатор кодека : 27
Продолжительность : 44 м.
Битрейт : 7863 Кбит/сек
Ширина : 1920 пикселей
Высота : 1080 пикселей
Соотношение сторон : 16:9
Частота кадров : 25,000 кадров/сек
Цветовое пространство : YUV
Субдискретизация насыщенности : 4:2:0
Битовая глубина : 8 бит
Тип развёртки : MBAFF
Метод сохранения типа развёртки : Чередующиеся поля
Порядок развёртки : Верхнее поле первое
Бит/(Пиксели*Кадры) : 0.152
Размер потока : 2,44 Гбайт (93%)
Цветовой диапазон : Limited
Основные цвета : BT.709
Характеристики трансфера : BT.709
Коэффициенты матрицы : BT.709
Аудио
Идентификатор : 68 (0x44)
Идентификатор меню : 1 (0x1)
Формат : MPEG Audio
Версия формата : Version 1
Профиль формата : Layer 2
Идентификатор кодека : 3
Продолжительность : 44 м.
Вид битрейта : Постоянный
Битрейт : 192 Кбит/сек
Каналы : 2 канала
Частота : 48,0 КГц
Метод сжатия : С потерями
Задержка видео : -40 мс.
Размер потока : 61,1 Мбайт (2%)
Язык : Russian

Скриншоты

-Рекламы нет.
Скачали? То пожалуйста дайте скачать другим не уходите с раздачи. Заранее благодарен
Вы не можете начинать темы
Вы не можете отвечать на сообщения
Вы не можете редактировать свои сообщения
Вы не можете удалять свои сообщения
Вы не можете голосовать в опросах
Вы не можете прикреплять файлы к сообщениям
Вы можете скачивать файлы
Sitemap