Вокзальная история (Ирина Рылина) [2014, Россия, мультфильм, WEBRip] 

Цитировать
Вокзальная история
Страна: Россия
Жанр: мультфильм
Продолжительность: 00:06:33
Год выпуска: 2014
Режиссёр: Ирина Рылина
Описание: Непростая история любви вокзальной буфетчицы и проводника проходящего поезда.
Доп. информация: Диплом жюри за железнодорожную романтику - Фестиваль в Суздале (2016)
Качество: WEBRip
Формат: AVI
Видео: 1528 kbps, 704х528 (1.436), 25.000 fps, MPEG-4 Visual (XviD)
Аудио: 192 kbps, 44.1 kHz, 2 channels, MPEG Audio (MP3)
Субтитры: отсутствуют

Подробные технические данные

GeneralComplete name                            : Вокзальная история. 2014.aviFormat                                   : AVIFormat/Info                              : Audio Video InterleaveFile size                                : 81.3 MiBDuration                                 : 6mn 33sOverall bit rate                         : 1 732 KbpsWriting application                      : MEncoder SVN-r30881(20100311-gcc4.3.3)Writing library                          : MPlayer
VideoID : 0Format : MPEG-4 VisualFormat profile : Advanced Simple@L5Format settings, BVOP : 2Format settings, QPel : NoFormat settings, GMC : No warppointsFormat settings, Matrix : Default (H.263)Codec ID : XVIDCodec ID/Hint : XviDDuration : 6mn 33sBit rate : 1 528 KbpsWidth : 704 pixelsHeight : 528 pixelsDisplay aspect ratio : 1.436Original display aspect ratio : 4:3Frame rate : 25.000 fpsColor space : YUVChroma subsampling : 4:2:0Bit depth : 8 bitsScan type : ProgressiveCompression mode : LossyBits/(Pixel*Frame) : 0.164Stream size : 71.7 MiB (88%)Writing library : XviD 1.2.1 (UTC 2008-12-04)
AudioID : 1Format : MPEG AudioFormat version : Version 1Format profile : Layer 3Mode : Joint stereoMode extension : MS StereoCodec ID : 55Codec ID/Hint : MP3Duration : 6mn 33sBit rate mode : ConstantBit rate : 192 KbpsChannel(s) : 2 channelsSampling rate : 44.1 KHzCompression mode : LossyDelay relative to video : 40msStream size : 9.01 MiB (11%)Alignment : Aligned on interleavesInterleave, duration : 26 ms (0.65 video frame)Interleave, preload duration : 522 msWriting library : LAME3.98

Скриншоты

Вы не можете начинать темы
Вы не можете отвечать на сообщения
Вы не можете редактировать свои сообщения
Вы не можете удалять свои сообщения
Вы не можете голосовать в опросах
Вы не можете прикреплять файлы к сообщениям
Вы можете скачивать файлы
Sitemap