Про Хвеська Ганджу Андыбера и духов-серебряников / Про Хвеська Ганджу Андибера і дуків срібляників (Юрий Скирда) [1994, Украина, мультфильм, DVDRip] 

Цитировать
Про Хвеська Ганджу Андыбера и духов-серебряников / Про Хвеська Ганджу Андибера і дуків срібляників
Страна: Украина
Жанр: мультфильм
Продолжительность: 00:09:54
Год выпуска: 1994
Перевод: не требуется
Русские субтитры: нет
Режиссёр: Юрий Скирда
Песни исполняют: Алла Чигирин и хор "Чумак"
Описание: По мотивам украинского фольклора.
Странствовал казак одиннадцать лет, на двенадцатый год набрёл на хату, где жили нечистые духи и держали в служанках девицу-сироту...
Качество: DVDRip
Формат: AVI
Видео: 2189 kbps, 704х544 (1.294), 25.000 fps, MPEG-4 Visual (XviD)
Аудио: 128 kbps, 48.0 kHz, 2 channels, MPEG Audio (MP3)
Субтитры: отсутствуют

Подробные технические данные

GeneralComplete name                            : Про духов серебряников. 1994.aviFormat                                   : AVIFormat/Info                              : Audio Video InterleaveFile size                                : 165 MiBDuration                                 : 9mn 54sOverall bit rate                         : 2 327 KbpsWriting library                          : VirtualDub build 35491/release
VideoID : 0Format : MPEG-4 VisualFormat profile : Advanced Simple@L5Format settings, BVOP : 2Format settings, QPel : NoFormat settings, GMC : No warppointsFormat settings, Matrix : Default (H.263)Codec ID : XVIDCodec ID/Hint : XviDDuration : 9mn 54sBit rate : 2 189 KbpsWidth : 704 pixelsHeight : 544 pixelsDisplay aspect ratio : 1.294Frame rate : 25.000 fpsColor space : YUVChroma subsampling : 4:2:0Bit depth : 8 bitsScan type : ProgressiveCompression mode : LossyBits/(Pixel*Frame) : 0.229Stream size : 155 MiB (94%)Writing library : XviD 73
AudioID : 1Format : MPEG AudioFormat version : Version 1Format profile : Layer 3Codec ID : 55Codec ID/Hint : MP3Duration : 9mn 54sBit rate mode : ConstantBit rate : 128 KbpsChannel(s) : 1 channelSampling rate : 48.0 KHzCompression mode : LossyStream size : 9.06 MiB (6%)Alignment : Aligned on interleavesInterleave, duration : 40 ms (1.00 video frame)Interleave, preload duration : 504 msWriting library : LAME3.97

Скриншоты

Вы не можете начинать темы
Вы не можете отвечать на сообщения
Вы не можете редактировать свои сообщения
Вы не можете удалять свои сообщения
Вы не можете голосовать в опросах
Вы не можете прикреплять файлы к сообщениям
Вы можете скачивать файлы
Sitemap