Фантомагия. Любовь неземная (Геннадий Тищенко) [1997, Россия, мультфильм для взрослых, WEBRip] 

Цитировать
Фантомагия. Любовь неземная
Страна: Россия
Жанр: мультфильм для взрослых
Продолжительность: 00:12:54
Год выпуска: 1997
Режиссёр: Геннадий Тищенко
Роли озвучивали: Армен Джигарханян, Лариса Москвичёва, Юрий Филоненко, Лариса Брохман
Описание: Первая серия несостоявшегося мультсериала (вроде бы снималась ещё и вторая). Сказочно-фантастическая пародия из "лихих 90-ых". Сумбурный результат амбиций продюсера поп-певицы Ларисы Москвичёвой и фотомодели Инги Дроздовой.
Качество: WEBRip
Формат: AVI
Видео: 1595 kbps, 704х528 (4:3), 25.000 fps, MPEG-4 Visual (XviD)
Аудио: 192 kbps, 44.1 kHz, 2 channels, MPEG Audio (MP3)
Субтитры: отсутствуют

Подробные технические данные

General
Complete name : Фантомагия. Любовь неземная. 1997.avi
Format : AVI
Format/Info : Audio Video Interleave
File size : 166 MiB
Duration : 12mn 54s
Overall bit rate : 1 799 Kbps
Writing application : MEncoder SVN-r30881(20100311-gcc4.3.3)
Writing library : MPlayer
Video
ID : 0
Format : MPEG-4 Visual
Format profile : Advanced Simple@L5
Format settings, BVOP : 2
Format settings, QPel : No
Format settings, GMC : No warppoints
Format settings, Matrix : Default (H.263)
Codec ID : XVID
Codec ID/Hint : XviD
Duration : 12mn 54s
Bit rate : 1 595 Kbps
Width : 704 pixels
Height : 528 pixels
Display aspect ratio : 4:3
Frame rate : 25.000 fps
Color space : YUV
Chroma subsampling : 4:2:0
Bit depth : 8 bits
Scan type : Progressive
Compression mode : Lossy
Bits/(Pixel*Frame) : 0.172
Stream size : 147 MiB (89%)
Writing library : XviD 1.2.1 (UTC 2008-12-04)
Audio
ID : 1
Format : MPEG Audio
Format version : Version 1
Format profile : Layer 3
Mode : Joint stereo
Mode extension : MS Stereo
Codec ID : 55
Codec ID/Hint : MP3
Duration : 12mn 54s
Bit rate mode : Constant
Bit rate : 192 Kbps
Channel(s) : 2 channels
Sampling rate : 44.1 KHz
Compression mode : Lossy
Delay relative to video : 80ms
Stream size : 17.7 MiB (11%)
Alignment : Aligned on interleaves
Interleave, duration : 26 ms (0.65 video frame)
Interleave, preload duration : 522 ms
Writing library : LAME3.98

Скриншоты

Вы не можете начинать темы
Вы не можете отвечать на сообщения
Вы не можете редактировать свои сообщения
Вы не можете удалять свои сообщения
Вы не можете голосовать в опросах
Вы не можете прикреплять файлы к сообщениям
Вы можете скачивать файлы
Sitemap