Сказка про ёлочку (Мария Муат) [2011, Анимационный фильм, DVDScreener] 

Цитировать
Сказка про ёлочку
Страна: Россия
Жанр: Анимационный фильм
Продолжительность: 00:13:03
Год выпуска: 2011
Русские субтитры: нет
Режиссёр: Мария Муат
Описание: Маленькая девочка-елочка решила перед Новым годом «узнать жизнь».
Доп. информация: Специальный приз Открытого фестиваля анимационного кино, Суздаль (Россия), 2012
Международный фестиваль кинематографических дебютов "Дух Огня", Ханты Мансийск (Россия), 2013
Mostra Internazionale del Nuovo Cinema, Pesaro (Италия), 2013
Международный кинофестиваль им. А. Тарковского 'Зеркало', Иваново (Россия), 2012
Большой фестиваль мультфильмов, Москва (Россия), 2012
Московский международный кинофестиваль (ММКФ), Москва (Россия), 2012
Фестиваль отечественного кино ''Московская премьера'', Москва (Россия), 2012
Международный кинофестиваль "Меридианы Тихого", Владивосток (Россия), 2012
Фестиваль российского кино 'Окно в Европу', Выборг (Россия), 2012
«Любимые мультфильмы для любимых зрителей», Москва (Россия), 2012
Международный кинофестиваль семейных и детских фильмов "В кругу семьи", Екатеринбург (Россия), 2012
Фестиваль русского кино в Лондоне, Лондон (Великобритания), 2012
Большой фестиваль мультфильмов, Москва (Россия), 2011
Качество: DVDScreener
Формат: AVI
Видео: DIVX, 720x536, 25fps, 1688kbps
Аудио: MPEG Layer 3, 48kHz, 2ch, 192 kbps
Субтитры: отсутствуют

Подробные технические данные

Полное имя                               :Сказка про ёлочку.avi
Формат : AVI
Формат/Информация : Audio Video Interleave
Размер файла : 177 Мбайт
Продолжительность : 13 м.
Общий поток : 1890 Кбит/сек
Программа кодирования : VirtualDubMod 1.5.10.3 | www.virtualdub-fr.org || (build 2550/release)
Библиотека кодирования : VirtualDubMod build 2550/release
Видео
Идентификатор : 0
Формат : MPEG-4 Visual
Профиль формата : Advanced Simple@L5
Параметр BVOP формата : 1
Параметр QPel формата : Нет
Параметр GMC формата : Без точки перехода
Параметр матрицы формата : Default (H.263)
Идентификатор кодека : DIVX
Идентификатор кодека/Информация : Project Mayo
Идентификатор кодека/Подсказка : DivX 4
Продолжительность : 13 м.
Битрейт : 1688 Кбит/сек
Ширина : 720 пикселей
Высота : 536 пикселей
Соотношение сторон : 4:3
Частота кадров : 25,000 кадров/сек
Цветовое пространство : YUV
Субдискретизация насыщенности : 4:2:0
Битовая глубина : 8 бит
Тип развёртки : Прогрессивная
Метод сжатия : С потерями
Бит/(Пиксели*Кадры) : 0.175
Размер потока : 158 Мбайт (89%)
Библиотека кодирования : XviD 1.2.1 (UTC 2008-12-04)
Аудио
Идентификатор : 1
Формат : MPEG Audio
Версия формата : Version 1
Профиль формата : Layer 3
Идентификатор кодека : 55
Идентификатор кодека/Подсказка : MP3
Продолжительность : 13 м.
Вид битрейта : Постоянный
Битрейт : 192 Кбит/сек
Каналы : 2 канала
Частота : 48,0 КГц
Метод сжатия : С потерями
Размер потока : 17,9 Мбайт (10%)
Выравнивание : Соединение по промежуткам
Продолжительность промежутка : 40 мс. (1,00 видеокадр)
Время предзагрузки промежутка : 504 мс.
Библиотека кодирования : LAME3.99r
Настройки программы : -m s -V 4 -q 0 -lowpass 18.6 -b 192

Скриншоты



Вы не можете начинать темы
Вы не можете отвечать на сообщения
Вы не можете редактировать свои сообщения
Вы не можете удалять свои сообщения
Вы не можете голосовать в опросах
Вы не можете прикреплять файлы к сообщениям
Вы можете скачивать файлы
Sitemap