Гончие-6 / Сезон: 6 / Фильм: 1-2 из 6 / Серии: 1-8 из 16 (Валерий Мызников) [2013, криминал, детектив, DVB] 

Цитировать
Гончие 6
Год выпуска: 2013
Производство: "Форвард-Фильм", "Студия Панорама" и НТВ
Жанр: криминал, детектив
Продолжительность: ~0:45:00 серия
Субтитры: отсутствуют
Режиссёр: Валерий Мызников
В ролях: Павел Майков, Максим Фомин, Борис Хвошнянский, Елизавета Александрова, Владимир Абросимов, Павел Узденский, Евгения Белобородова, Виталий Салтыков, Александра Мареева, Андрей Феськов, Алексей Титков, Инна Коляда, Александр Загребин, Владимир Космидайло, Александр Иванов, Сергей Носиков, Виктор Бабак
Описание: Под руководством нового начальника – Владимира Резникова – работа розыскного отдела УФСИН приобретает новые черты и темп, к которому полковник успел привыкнуть во время своей службы в ФСБ, тем более, что многие дела «гончим» приходится вести совместно с бывшими коллегами Резникова. Непредсказуемая и опасная служба «гончих» часто лишает их самых простых человеческих радостей, таких как общение с близкими людьми, отдых в кругу семьи и тихий домашний уют. Но иногда жизнь всё-таки дарит им минуты настоящего счастья: Звонарёва узнаёт, что беременна; к Резникову из Москвы приезжает дочь, а затем возвращается его возлюбленная Настя; а совсем недавно женившийся Градов становится отцом. Все эти отрадные события вносят коррективы в жизнь отдела. Теперь Рите придётся воздержаться от беготни за бандитами, Градову нужно озаботиться устройством маленького сына, а Резников решает взять отпуск, чтобы провести его рядом с любимыми женщинами. Но работа, как всегда, вмешивается в радужные планы оперативников.
Релиз: -Все раздачи сериала / Сэмпл-Качество: DVB (Eutelsat 36A at 36.0°E)
Формат: MPEG-PS
Видео кодек: MPEG2
Аудио кодек: MP2
Видео: MPEG 2, 720x576 (16:9), 25.000 fps, 3546 Kbps (0.342 bit/pixel)
Аудио: MP2, 48.0 KHz, 2 ch, 192 Kbps, CBR

MediaInfo

Общее
Полное имя : L:\Раздачи\Гончие 6\Гончие 6.02 [rutracker.org].mpg
Формат : MPEG-PS
Размер файла : 1,20 Гбайт
Продолжительность : 44 м.
Режим общего битрейта : Переменный
Общий поток : 3814 Кбит/сек
Видео
Идентификатор : 224 (0xE0)
Формат : MPEG Video
Версия формата : Version 2
Профиль формата : Main@Main
Параметр BVOP формата : Да
Параметр матрицы формата : Выборочная
Параметр GOP формата : Variable
Продолжительность : 44 м.
Вид битрейта : Переменный
Битрейт : 3546 Кбит/сек
Максимальный битрейт : 15,0 Мбит/сек
Ширина : 720 пикселей
Высота : 576 пикселей
Соотношение сторон : 16:9
Частота кадров : 25,000 кадров/сек
Стандарт вещания : PAL
Цветовое пространство : YUV
Субдискретизация насыщенности : 4:2:0
Битовая глубина : 8 бит
Тип развёртки : Чересстрочная
Порядок развёртки : Верхнее поле первое
Метод сжатия : С потерями
Бит/(Пиксели*Кадры) : 0.342
Временной код первого кадра : 00:00:00:00
Оригинал временного кода : Group of pictures header
Размер потока : 1,11 Гбайт (93%)
Аудио
Идентификатор : 192 (0xC0)
Формат : MPEG Audio
Версия формата : Version 1
Профиль формата : Layer 2
Продолжительность : 44 м.
Вид битрейта : Постоянный
Битрейт : 192 Кбит/сек
Каналы : 2 канала
Частота : 48,0 КГц
Метод сжатия : С потерями
Задержка видео : -80 мс.
Размер потока : 61,7 Мбайт (5%)
Меню

Скриншоты


-

Внимание ! Раздача ведётся путём добавления новых серий

Внимание! Раздача ведётся путём добавления новых серий; при каждом добавлении создаётся новый торрент. Чтобы начать докачку новой серии, пользователям необходимо сделать следующее:
(1) остановить скачивание,
(2) удалить старый торрент у себя из клиента (старые серии удалять не надо),
(3) скачать новый торрент и запустить его у себя в клиенте вместо старого, при этом указать клиенту путь в старую папку куда и должно происходить скачивание новых серий.
Ваш клиент при этом должен произвести хеширование (проверку) старой папки (если не производит сам - помогите ему сделать это), и будет докачивать только те серии которых у вас ещё нет. Старые серии при этом не удаляются, а продолжают раздаваться!
Eсли вы уже удалили старые серии, то предотвратить повторную закачку старых серий можно, отжав галочку в соответствующих местах при запуске нового торрента. По возможности, желательно не удалять старые серии как можно дольше чтобы релизёр не столько продолжал раздавать старые серии, а смог сконцентрироваться на новых.
Вы не можете начинать темы
Вы не можете отвечать на сообщения
Вы не можете редактировать свои сообщения
Вы не можете удалять свои сообщения
Вы не можете голосовать в опросах
Вы не можете прикреплять файлы к сообщениям
Вы можете скачивать файлы
Sitemap