Гончие / Сезон: 6 / Фильм 3-6 / Серии: 9-24 из 24 (Валерий Мызников) [2014, Детектив, криминал, HDTVRip] 

Цитировать
Гончие - Год выпуска: 2014
Производство: Форвард-фильм, Студия Панорама
Жанр: Детектив, криминал
Продолжительность: 00:45:00
Субтитры: Нет
Режиссёр: Валерий Мызников
В ролях: Сергей Маховиков, Андрей Семёнов, Павел Гончаров, Александр Баргман, Мария Ахметзянова, Антон Юрьев, Сергей Мардарь, Михаил Бракоренко, Артур Федынко, Анна Миклош, Ирина Гершт, Оксана Сырцова, Сергей Гарусов, Андрей Некрасов (III), Наталья Мызникова, Сергей Лопухов, Ксения Алексеева, Андрей Аладьин, Артём Цыпин

Описание: Реорганизовав розыскной отдел УФСИН, генерал Шалимов решает поручить его руководство новому человеку – подполковнику Рубцову, многие годы прослужившему начальником оперчасти одной из отдалённых колоний. Едва прибыв на новое место службы, Рубцов сразу же столкнулся с проблемой кадров. В его подчинении оказываются очень разные люди: это бывший спецназовец Белояров, не имеющий навыков оперативной работы, аналитик Скворцов, почти лишённый, в свою очередь, боевого опыта, а также молодая хваткая Яна Щукина, назначение которой становится первой личной инициативой Рубцова. Вместе им предстоит налаживать работу своего подразделения «с нуля», причём, в боевом режиме, ведь беглые зеки не станут дожидаться, пока оперативники, наконец, смогут найти друг с другом общий язык.-Начало сезона тут http://rutracker.org/forum/viewtopic.php?t=4614598-Релиз группа: -Все раздачи сериала / Сэмпл-Качество: HDTVRip
Формат: AVI
Видео кодек: XviD
Аудио кодек: AC3
Видео: 720x400 (16:9), 25.000 fps, XviD build 73, 1530 Kbps, 0.21 bits/pixel
Аудио: 48 kHz, AC3 Dolby Digital, 2 ch, 192 Kbps-Доп. информация:
Фильм третий. с 1-4 (Другими словами это серии с 9-12)
Фильм четвёртый. с 1-4 (Другими словами это серии с 13-16)
Фильм пятый. с 1-4 (Другими словами это серии с 17-20)
Фильм шестой с 1-4 (Другими словами это серии с 21-24)
Поскольку получившийся с Павлом Майковым фильм, в конечном результате, не устроил канал, было принято решение закрыть проект и запустить новый фильм на ту же тему, но с новыми персонажами. Уже отснятые серии 6-ого сезона были присоединены к 5-ому. Таким образом, теперь мы имеем заключительный 5-ый сезон Гончих в 24 сериях и снимающийся новый проект. О нем могу cказать только что все персонажи в нем новые. Их по сценарию собрал новый руководитель УФСИН города, после того, как легендарный отдел «гончих» полностью разошелся после ухода на пенсию генерала Бородина.

MI

General
Complete name : X Гончие 6.(2016).HDTVRip.RG.Russkie.serialy.&.Files-x
Format : AVI
Format/Info : Audio Video Interleave
File size : 550 MiB
Duration : 44mn 24s
Overall bit rate : 1 731 Kbps
Writing application : VirtualDubMod 1.5.10.3 | www.virtualdub-fr.org || (build 2550/release)
Writing library : VirtualDubMod build 2550/release
Video
ID : 0
Format : MPEG-4 Visual
Format profile : Advanced Simple@L5
Format settings, BVOP : 1
Format settings, QPel : No
Format settings, GMC : No warppoints
Format settings, Matrix : Custom
Codec ID : XVID
Codec ID/Hint : XviD
Duration : 44mn 24s
Bit rate : 1 530 Kbps
Width : 720 pixels
Height : 400 pixels
Display aspect ratio : 16:9
Frame rate : 25.000 fps
Color space : YUV
Chroma subsampling : 4:2:0
Bit depth : 8 bits
Scan type : Progressive
Compression mode : Lossy
Bits/(Pixel*Frame) : 0.212
Stream size : 486 MiB (88%)
Writing library : XviD 73
Audio
ID : 1
Format : AC-3
Format/Info : Audio Coding 3
Mode extension : CM (complete main)
Format settings, Endianness : Big
Codec ID : 2000
Duration : 44mn 24s
Bit rate mode : Constant
Bit rate : 192 Kbps
Channel(s) : 2 channels
Channel positions : Front: L R
Sampling rate : 48.0 KHz
Frame rate : 31.250 fps (1536 spf)
Compression mode : Lossy
Stream size : 61.0 MiB (11%)
Alignment : Split accross interleaves
Interleave, duration : 40 ms (1.00 video frame)
Interleave, preload duratio : 500 ms

Скриншоты

Внимание! Раздача ведётся путём добавления новых серий:

(1) остановить скачивание,
(2) удалить старый торрент у себя из клиента (старые серии удалять не надо),
(3) скачать новый торрент и запустить его у себя в клиенте вместо старого, при этом указать клиенту путь в старую папку куда и должно происходить скачивание новых серий.
Ваш клиент при этом должен произвести хеширование (проверку) старой папки (если не производит сам - помогите ему сделать это), и будет докачивать только те серии которых у вас ещё нет. Старые серии при этом не удаляются, а продолжают раздаваться!
Eсли вы уже удалили старые серии, то предотвратить повторную закачку старых серий можно, отжав галочку в соответсвующих местах при запуске нового торрента. По возможности, желательно не удалять старые серии как можно дольше чтобы релизёр не столько продолжал раздавать старые серии, а смог сконцентрироваться на новых
.
Вы не можете начинать темы
Вы не можете отвечать на сообщения
Вы не можете редактировать свои сообщения
Вы не можете удалять свои сообщения
Вы не можете голосовать в опросах
Вы не можете прикреплять файлы к сообщениям
Вы можете скачивать файлы
Sitemap