Гончие / Сезон: 5 / Серии: 1-16 из 24 (Валерий Мызников) [2012, детектив, криминал, SATRip] 

Цитировать
Гончие-5
Год выпуска: 2012
Производство: Студия «Панорама», «Форвард-фильм»
Жанр: Детектив, криминал
Продолжительность: 16 x ~ 00:45:00
Субтитры: Нет
Режиссёр: Валерий Мызников
В ролях: Алексей Титков, Максим Фомин, Борис Хвошнянский, Эмилия Спивак, Владислав Мамчур, Елизавета Александрова, Роман Нечаев, Евгения Белобородова, Павел Майков, Павел Узденский, Виталий Салтыков, Андрей Феськов, Александр Нестеров (III), Станислав Казаку, Тимур Ефременков, Владимир Абросимов, Антон Чернов, Владимир Космидайло, Александр Самсон, Диана Дезмари, Никита Рогов
Описание: Розыскной отдел УФСИН ждут большие перемены. Сплочённая команда гончих потеряла своего вожака – после гибели случайного свидетеля во время задержания очередного сбежавшего преступника Горыныч, взявший ответственность за случившееся на себя, вынужден уйти на пенсию. Вместо него на должность руководителя отдела назначают никому неизвестного москвича, в прошлом полковника ФСБ Владимира Резникова.
Реклама: Нет
Все раздачи сериала: Гончие
Сэмпл: http://multi-up.com/1161272
Качество: SATRip
Формат: AVI
Видео кодек: XviD
Аудио кодек: AC3
Видео: 720x416 (1.73:1), 25 fps, XviD build 50 ~1500 kbps avg, ~0.20 bit/pixel
Аудио: 48 kHz, AC3 Dolby Digital, 2/0 (L,R) ch, ~192 kbps

MI

General
Complete name : \Гончие-5\1. Западня (1 сер.).avi
Format : AVI
Format/Info : Audio Video Interleave
File size : 555 MiB
Duration : 45 min 23 s
Overall bit rate : 1 710 kb/s
Writing application : VirtualDubMod 1.5.10.3 | www.virtualdub-fr.org || (build 2550/release)
Writing library : VirtualDubMod build 2550/release
Video
ID : 0
Format : MPEG-4 Visual
Format profile : Advanced Simple@L5
Format settings, BVOP : 2
Format settings, QPel : No
Format settings, GMC : No warppoints
Format settings, Matrix : Default (MPEG)
Codec ID : XVID
Codec ID/Hint : XviD
Duration : 45 min 23 s
Bit rate : 1 508 kb/s
Width : 720 pixels
Height : 416 pixels
Display aspect ratio : 1.731
Frame rate : 25.000 FPS
Color space : YUV
Chroma subsampling : 4:2:0
Bit depth : 8 bits
Scan type : Progressive
Compression mode : Lossy
Bits/(Pixel*Frame) : 0.201
Stream size : 490 MiB (88%)
Writing library : XviD 1.2.1 (UTC 2008-12-04)
Audio
ID : 1
Format : AC-3
Format/Info : Audio Coding 3
Format settings, Endianness : Big
Codec ID : 2000
Duration : 45 min 23 s
Bit rate mode : Constant
Bit rate : 192 kb/s
Channel(s) : 2 channels
Channel positions : Front: L R
Sampling rate : 48.0 kHz
Frame rate : 31.250 FPS (1536 spf)
Bit depth : 16 bits
Compression mode : Lossy
Delay relative to video : 250 ms
Stream size : 62.3 MiB (11%)
Alignment : Split accross interleaves
Interleave, duration : 40 ms (1.00 video frame)
Interleave, preload duratio : 500 ms
Service kind : Complete Main

Скриншоты

Вы не можете начинать темы
Вы не можете отвечать на сообщения
Вы не можете редактировать свои сообщения
Вы не можете удалять свои сообщения
Вы не можете голосовать в опросах
Вы не можете прикреплять файлы к сообщениям
Вы можете скачивать файлы
Sitemap